Прочие темы про радио и ТВ

Re: Он-лайн радиостанции и ТВ

07 сен 2023, 00:43

Ещё раз приветствую всех. Нужна рабочая ссыль для VLC на канал 365 дней ТВ. Всем заранее СПС.

Re: Он-лайн радиостанции и ТВ

11 сен 2023, 19:13

http://nov.rlnk.ru:8000/radio.mcarlo - Монте-Карло Великий Новгород 105.3 МГц
http://nov.rlnk.ru:8000/radio.zvezda - Радио Звезда Великий Новгород 106.2 МГц

rnd61 писал(а):Вытащите поток Радио 7 Ростов
https://radio7.ru/?region=rostov

Там эфир не из Ростова-на-Дону. Обычный федеральный эфир.

Re: Он-лайн радиостанции и ТВ

12 сен 2023, 01:52

alex77 писал(а):Плейлист для AIMP 312 радиостанций от 12.08.23 (потоки HLS) m3u


Прекрасно и в VLC 3.0.18 Vetinari работает. :roll:
p.s. Спасибо

Re: Он-лайн радиостанции и ТВ

18 сен 2023, 11:02

Друзья,
поделитесь, пожалуйста, ссылкой на поток Пи ФМ, желательно в aac или aacp, если такие существуют.
Заранее благодарю!

Re: Он-лайн радиостанции и ТВ

18 сен 2023, 23:18

Иван К. писал(а):поделитесь, пожалуйста, ссылкой на поток Пи ФМ, желательно в aac или aacp

На оф. айскасте есть поток (56kb/s HE-AACv2) aac

Re: Он-лайн радиостанции и ТВ

30 сен 2023, 18:31

Поделитесь кто может ссылкой на Радио ANNA-NEWS пожалуйста.

Re: Он-лайн радиостанции и ТВ

30 сен 2023, 19:30

ccboris писал(а):Поделитесь кто может ссылкой на Радио ANNA-NEWS пожалуйста.

https://radio.anna-news.info:1443/live

Re: Он-лайн радиостанции и ТВ

30 сен 2023, 19:46

michaelmd
https://radio.anna-news.info:1443/live
Спасибо!

Re: Он-лайн радиостанции и ТВ

03 окт 2023, 02:01

Маяк Магадан - https://s0.radioheart.ru:8000/RH74550

Re: Он-лайн радиостанции и ТВ

06 окт 2023, 23:49

Добрый день! Не могли бы скинуть ссылки для прослушивания: DFM (Челябинск) и L-Radio. Спасибо.

Re: Он-лайн радиостанции и ТВ

07 окт 2023, 01:38

Ещё раз здравствуйте. Нужна рабочая ссыль на радио мир. Старые все полегли ещё бог знает когда.

Re: Он-лайн радиостанции и ТВ

07 окт 2023, 02:14

Здравствуйте!
Вытащите пожалуйста ссылку
https://www.rtr.spb.ru/radio_ru/radio_on_ukv.html
Старая почему-то перестала работать

Re: Он-лайн радиостанции и ТВ

07 окт 2023, 02:19

DFM (Челябинск) http://s05.volnorez.com:8001/live-app/542130
L-Radio http://server.lradio.ru:8000/lradio16.aac http://server.lradio.ru:8000/lradio64.aac https://air.unmixed.ru/lradio256
Радио Мир http://icecast-mirtv.cdnvideo.ru/radio_mir_256 http://icecast-mirtv.cdnvideo.ru/radio_mir4_256 http://icecast-mirtv.cdnvideo.ru/radio_mir6_256
Радио России - Санкт-Петербург https://radio.rtr.spb.ru/live1 https://rtr.spb.ru/live2

Re: Он-лайн радиостанции и ТВ

07 окт 2023, 02:32

Спасибо большое
А Радио России Санкт-Петербург какое сейчас качество вещания на обоих ссылках стало?
Спасибо Вам большое

Re: Он-лайн радиостанции и ТВ

07 окт 2023, 02:46

retro писал(а):А Радио России Санкт-Петербург какое сейчас качество вещания на обоих ссылках стало?

Судя по ffprobe, то там mp3 и одинаковый битрейт

Код:
ffprobe -i https://rtr.spb.ru/live1

[mp3 @ 00a45b40] Skipping 175 bytes of junk at 0.
Input #0, mp3, from 'https://rtr.spb.ru/live1':
  Metadata:
    icy-br          : 64
    icy-description : Radio Russia SPB UKV 66.3
    icy-genre       : radio
    icy-name        : Radio Russia SPB UKV 66.3
    icy-pub         : 0
    icy-url         : https://www.rtr.spb.ru/radio/
    StreamTitle     :
  Duration: N/A, start: 0.000000, bitrate: 73 kb/s
  Stream #0:0: Audio: mp3, 44100 Hz, stereo, fltp, 73 kb/s


Код:
ffprobe -i https://rtr.spb.ru/live2

[mp3 @ 00765b40] Skipping 70 bytes of junk at 0.
Input #0, mp3, from 'https://rtr.spb.ru/live2':
  Metadata:
    icy-br          : 64
    icy-description : Radio Russia SPB FM 99.0
    icy-genre       : radio
    icy-name        : Radio Russia SPB FM 99.0
    icy-pub         : 0
    icy-url         : https://www.rtr.spb.ru/radio/
    StreamTitle     :
  Duration: N/A, start: 0.000000, bitrate: 73 kb/s
  Stream #0:0: Audio: mp3, 44100 Hz, stereo, fltp, 73 kb/s